DNS SERVER ÄNDERN, um der staatlichen Zensur zu entgehen. Sollten wir von eurem Provider gesperrt werden, nutzt den TOR BROWSER oder ändert euren DNS SERVER.

Filmwünsche können bei uns im Forum abgegeben werden

Wir Speichern Nicht




 
 
 
Top Releases
303.German.1080p.BluRay.x264...
303.2018.GERMAN.COMPLETE.BLU...
303.German.720p.BluRay.x264-...
Mile.22.2018.MULTI.COMPLETE....
Dog.Days.2018.MULTI.COMPLETE...
Mile.22.2018.German.DL.1080p...
Mile.22.2018.German.720p.Blu...
Reign.of.the.Supermen.2019.M...
Upgrade.2018.German.DL.1080p...
Upgrade.2018.German.720p.Blu...

Cinedubs
Siberia.2018.German.AC3D.WEB...
Siberia.2018.German.AC3D.WEB...
Climax.2018.German.DL.AC3.10...
Climax.2018.German.DL.AC3.72...
Mortal.Engines.Krieg.der.Sta...
Mortal.Engines.Krieg.der.Sta...
Der.Grinch.2018.German.DL.AC...
Der.Grinch.2018.German.DL.AC...
Widows.Toedliche.Witwen.2018...
Widows.Toedliche.Witwen.2018...

Neuerscheinungen 2018-19
Keepers.Die.Leuchtturmwaerte...
Gundermann.German.1080p.BluR...
Keepers.Die.Leuchtturmwaerte...
Keepers.Die.Leuchtturmwaerte...
So.was.von.da.German.1080p.B...
So.was.von.da.German.720p.Bl...
Gundermann.German.720p.BluRa...
Superfly.2018.MULTi.COMPLETE...
Superfly.German.720p.BluRay....
Superfly.German.DL.1080p.Blu...

XXX
ErotiqueTVLive.18.05.19.Kate...
FirstAnalQuest.19.01.01.Deni...
Made.to.Tit.Fuck.2013.XXX.10...
Milfs.Like.It.Rough.2014.XXX...
NinaKayy.18.01.18.Hot.Tub.Fu...
NinaKayy.18.01.30.Taking.A.R...
Public.Anal.Amateurs.Spread....
Tushy.19.01.01.Brett.Rossi.X...
X-Sensual.18.12.16.Marselina...
Accidentally.Lesbian.4.2017....
Cute.And.Tight.Holes.2016.XX...
Her.Sweet.Asshole.Gets.Re.si...
Hot.Wife.Stories.2017.XXX.10...
The.House.Of.Sin.2014.XXX.72...
Trouble.X.2.2016.XXX.720p.HD...
Value.10.Real.Massive.Racks....
White.18.Yo.Mistresses.For.B...
Desperate.Lesbian.Wives.XXX....
Epic.Lesbian.Orgasms.2016.XX...
Kinky.Erotic.Suckjobs.XXX.HD...

3D
Die.Reise.zum.Mittelpunkt.de...
Die.Reise.zum.Mittelpunkt.de...
Die.Reise.zum.Mittelpunkt.de...
Kaluoka.Hina.Das.Zauberriff....
Blade.Runner.2049.3D.2017.Ge...
Walhalla.Rising.3D.2009.DUAL...
Sleepwalker.3D.2011.DUAL.COM...
Bis.an.die.Grenzen.des.Unive...
Best.of.3D.vol.13.-.15.GERMA...
Limbradur.und.die.Magie.der....
Kaluoka.Hina.Das.Zauberriff....
Limbradur.und.die.Magie.der....
Smallfoot.3D.2018.COMPLETE.B...
Smallfoot.Ein.eisigartiges.A...
Skyscraper.3D.2018.German.DL...

Old_Stuff
Ip.Man.2.2010.German.DTS.108...
Todfreunde.aka.Bad.Influence...
Animatrix.2003.German.DL.108...
Animatrix.2003.German.DL.720...
Akte.X.S06.German.DTS.DL.108...
The.Beauty.of.Gemina.Minor.S...
ZZ.Top.Live.from.Texas.2008....
Peter.Hase.2018.German.DL.10...
Akte.X.S05.German.DTS.DL.108...
Akte.X.S04.German.DTS.DL.108...
Akte.X.S03.German.DTS.DL.108...
Dunkirk.1958.COMPLETE.BLURAY...
Das.Wunder.von.Manhattan.199...
The.Amazing.Spiderman.2.Rise...
Rise.of.the.Predator.2014.Ge...

Filme
The.Good.Doctor.S02.German.D...
The.Good.Doctor.S02.German.D...
NCIS.S16.GERMAN.DL.DUBBED.10...
NCIS.S16.GERMAN.DUBBED.720p....
Loooser.How.to.win.and.lose....
Generation.Sputnik.Das.golde...
Kubrick.Nixon.und.der.Mann.i...
Mega.Event.Skispringen.-.Wel...
Hund.und.Mensch.Das.Geheimni...
City.Slickers.1991.Remastere...
Metropolis.1927.Remastered.B...
Lake.Death.Tod.aus.der.Tiefe...
Gans.im.Glueck.2018.German.D...
Barbara.German.1080p.BluRay....
Bingo.Kuck.mal.wer.da.bellt....
Die.Reise.zum.Mittelpunkt.de...
Bad.Boys.2.2003.German.DL.10...
Grease.2.1982.German.DL.1080...
Der.Liebe.verfallen.1984.Ger...
Tin.Cup.1996.German.AC3.DL.1...
Tin.Cup.1996.German.AC3.DL.7...
Der.Weg.nach.El.Dorado.2000....
True.Detective.S03.German.DL...
True.Detective.S03.German.DL...

 
 
Gaensehaut.2.Gruseliges.Halloween.2018.German.AC3D.DL.1080p.BluRay.x264-BluRHD

Jahr: 2018
Genre: Abenteuer, Komödie
Sprache: Deutsch AC3 | Englisch DTS
Laufzeit: 1h 29mn
Bitrate: 10.6 Mbps
Format: MKV
Größe: 6.67 GiB
Release:

Beschreibung:

Nur mit Mühe und Not konnten der Schriftsteller R.L. Stine (Jack Black) und seine jugendlichen Mitstreiter (darunter Dylan Minnette und Odeya Rush) die real gewordenen Monster aus den Geschichten des Gruselbuch-Autors wieder ins Reich der Fiktion verbannen. Doch das war erst der Anfang. Als die beiden Freunde Sonny (Jeremy Ray Taylor) und Sam (Caleel Harris) in einem verlassenen Haus nämlich auf ein verstecktes Buch Stines stoßen und es öffnen, entfesseln sie damit erneut das Böse – in Form der mörderischen Bauchrednerpuppe Slappy (im Original gesprochen von Avery Lee Jones). Anfangs sieht es so aus, als wolle sie nur Teil der Familie sein. Doch nach und nach wird klar: Slappy möchte weitere Horror-Kollegen in die Menschenwelt holen, um so eine wahre Apokalypse zu entfesseln. Gemeinsam mit Sonnys Schwester Sarah (Madison Iseman) versuchen Sonny und Sam, Slappys teuflischen Plan zu durchkreuzen…



Complete name                            : bhd-gaense2-1080p.mkv
Format                                   : Matroska
Format version                           : Version 4 / Version 2
File size                                : 6.67 GiB
Duration                                 : 1h 29mn
Overall bit rate                         : 10.6 Mbps
Encoded date                             : UTC 2019-01-05 06:16:36
Writing application                      : mkvmerge v8.8.0 ('Wind at my back') 32bit
Writing library                          : libebml v1.3.3 + libmatroska v1.4.4
DURATION                                 : 01:29:48.384000000
NUMBER_OF_FRAMES                         : 505161
NUMBER_OF_BYTES                          : 1016383932
_STATISTICS_WRITING_APP                  : mkvmerge v8.8.0 ('Wind at my back') 32bit
_STATISTICS_WRITING_DATE_UTC             : 2019-01-05 06:16:36
_STATISTICS_TAGS                         : BPS DURATION NUMBER_OF_FRAMES NUMBER_OF_BYTES

Video
ID                                       : 1
Format                                   : AVC
Format/Info                              : Advanced Video Codec
Format profile                           : High@L4.1
Format settings, CABAC                   : Yes
Format settings, ReFrames                : 5 frames
Codec ID                                 : V_MPEG4/ISO/AVC
Duration                                 : 1h 29mn
Bit rate                                 : 8 943 Kbps
Width                                    : 1 920 pixels
Height                                   : 808 pixels
Display aspect ratio                     : 2.40:1
Frame rate mode                          : Constant
Frame rate                               : 23.976 fps
Color space                              : YUV
Chroma subsampling                       : 4:2:0
Bit depth                                : 8 bits
Scan type                                : Progressive
Bits/(Pixel*Frame)                       : 0.240
Stream size                              : 5.47 GiB (82%)
Writing library                          : x264 core 157 r2935 545de2f
Encoding settings                        : cabac=1 / ref=5 / deblock=1:-3:-3 / analyse=0x3:0x113 / me=umh / subme=8 / psy=1 / psy_rd=1.00:0.00 / mixed_ref=1 / me_range=16 / chroma_me=1 / trellis=1 / 8x8dct=1 / cqm=0 / deadzone=21,11 / fast_pskip=1 / chroma_qp_offset=-2 / threads=24 / lookahead_threads=4 / sliced_threads=0 / nr=0 / decimate=1 / interlaced=0 / bluray_compat=0 / constrained_intra=0 / bframes=3 / b_pyramid=2 / b_adapt=1 / b_bias=0 / direct=3 / weightb=1 / open_gop=0 / weightp=2 / keyint=250 / keyint_min=23 / scenecut=40 / intra_refresh=0 / rc_lookahead=50 / rc=2pass / mbtree=1 / bitrate=8943 / ratetol=1.0 / qcomp=0.60 / qpmin=0 / qpmax=69 / qpstep=4 / cplxblur=20.0 / qblur=0.5 / ip_ratio=1.40 / aq=1:1.00
Language                                 : English
Default                                  : Yes
Forced                                   : No
DURATION                                 : 01:29:48.383000000
NUMBER_OF_FRAMES                         : 129192
NUMBER_OF_BYTES                          : 6019110862
_STATISTICS_WRITING_APP                  : mkvmerge v8.8.0 ('Wind at my back') 32bit
_STATISTICS_WRITING_DATE_UTC             : 2019-01-05 06:16:36
_STATISTICS_TAGS                         : BPS DURATION NUMBER_OF_FRAMES NUMBER_OF_BYTES

Audio #1
ID                                       : 2
Format                                   : AC-3
Format/Info                              : Audio Coding 3
Mode extension                           : CM (complete main)
Format settings, Endianness              : Big
Codec ID                                 : A_AC3
Duration                                 : 1h 29mn
Bit rate mode                            : Constant
Bit rate                                 : 192 Kbps
Channel(s)                               : 2 channels
Channel positions                        : Front: L R
Sampling rate                            : 48.0 KHz
Bit depth                                : 16 bits
Compression mode                         : Lossy
Delay relative to video                  : 1s 0ms
Stream size                              : 123 MiB (2%)
Title                                    : German
Language                                 : German
Default                                  : Yes
Forced                                   : No

Audio #2
ID                                       : 3
Format                                   : DTS
Format/Info                              : Digital Theater Systems
Mode                                     : 16
Format settings, Endianness              : Big
Codec ID                                 : A_DTS
Duration                                 : 1h 29mn
Bit rate mode                            : Constant
Bit rate                                 : 1 509 Kbps
Channel(s)                               : 6 channels
Channel positions                        : Front: L C R, Side: L R, LFE
Sampling rate                            : 48.0 KHz
Bit depth                                : 24 bits
Compression mode                         : Lossy
Stream size                              : 969 MiB (14%)
Title                                    : English
Language                                 : English
Default                                  : No
Forced                                   : No


Download:
Share Online Share OnlineShare OnlineShare Online
 

Kommentare