HD-AREA wünscht Euch eine besinnliche Weihnachtszeit ;)

DNS SERVER AENDERNum der staatlichen Zensur zu umgehen. Sollten wir von eurem Provider geseprrt werden, nutzt den TOR BROWSER oder ändert euren DNS SERVER.

Filmwünsche können bei uns im Forum abgegeben werden

Wir Speichern Nicht




 
 
 
Top Releases
Von.Loewen.und.Laemmern.2007...
The.Hateful.8.2015.German.AC...
Der.Unsichtbare.Gast.2016.Ge...
BlacKkKlansman.2018.German.A...
Von.Loewen.und.Laemmern.2007...
Von.Loewen.und.Laemmern.2007...
Von.Loewen.und.Laemmern.2007...
Braven.2018.German.AC3.DL.10...
The.Last.Movie.Star.2017.DUA...
The.Infiltrator.2016.German....

Cinedubs
Johnny.English.Man.lebt.nur....
Johnny.English.Man.lebt.nur....
Johnny.English.Man.lebt.nur....
Phantastische.Tierwesen.Grin...
Phantastische.Tierwesen.Grin...
The.Guilty.2018.German.AC3D....
The.Guilty.2018.German.AC3D....
Aufbruch.zum.Mond.German.DL....
Aufbruch.zum.Mond.German.DL....
Night.School.2018.GERMAN.DL....

Neuerscheinungen 2017-18
Slender.Man.2018.MULTi.COMPL...
Der.Teufelsschrei.Evilspeak....
Ultimate.Justice.Toeten.oder...
Ben.Abenteuer.auf.der.Maeuse...
Ben.Abenteuer.auf.der.Maeuse...
Ben.Abenteuer.auf.der.Maeuse...
Ultimate.Justice.Toeten.oder...
Ultimate.Justice.Toeten.oder...
Pitchfork.2016.UNCUT.German....
Robin.Hood.Der.Rebell.2018.G...

XXX
FatManFuck.18.06.17.Lexus.Jo...
FatManFuck.18.05.20.Charlie....
FuckinVan.18.12.11.Estrella....
EuroTeenErotica.18.12.10.Kri...
GapeLand.18.12.12.Victoria.P...
GirlsOutWest.18.12.10.Rubi.V...
FatManFuck.18.05.27.Cherry.X...
GirlsWay.18.12.10.Penny.Pax....
FatManFuck.18.05.05.Lola.Rae...
FTVMilfs.18.12.11.Elle.Mcrae...
FakeTaxi.18.12.12.Kylie.Nymp...
GirlsOutWest.18.12.12.Montan...
GroupSexGames.18.12.09.Jasmi...
GirlsGoneWild.18.12.11.Honey...
FakeDrivingSchool.18.12.10.G...
Ferocious.Feet.5.XXX.1080p.W...
GrandpasFuckTeens.18.12.11.S...
DorcelClub.18.12.10.Mariska....
EroticaX.18.12.12.Valentina....
EvilAngel.Noir.XXX.1080p.MP4...

3D
Meg.3D.2018.MULTi.COMPLETE.B...
Meg.3D.2018.German.DL.1080p....
Gans.im.Glueck.3D.2018.MULTi...
The.Art.of.Flight.3D.2011.Ge...
The.End.Of.The.World.3D.2010...
The.First.Avenger.Civil.War....
Die.Unglaublichen.2.2018.3D....
Skyscraper.3D.2018.MULTi.COM...
Ant-Man.And.The.Wasp.3D.2018...
Ant.Man.and.the.Wasp.3D.2018...
Die.Unglaublichen.2.3D.2018....
Die.Unglaublichen.2.2018.3D....
Die.Unglaublichen.2.2018.3D....
Sharknado.6.The.Last.One.3D....
Deep.Kleine.Helden.der.Tiefs...

Old_Stuff
Akte.X.S05.German.DTS.DL.108...
Akte.X.S04.German.DTS.DL.108...
Akte.X.S03.German.DTS.DL.108...
Dunkirk.1958.COMPLETE.BLURAY...
Das.Wunder.von.Manhattan.199...
The.Amazing.Spiderman.2.Rise...
Rise.of.the.Predator.2014.Ge...
Detective.Dee.und.das.Geheim...
Detective.Dee.Und.Der.Fluch....
Ghost.Rider.Spirit.of.Vengea...
Species.IV.Das.Erwachen.2007...
Species.IV.Das.Erwachen.2007...
Hotel.Transsilvanien.2012.Ge...
The.Dead.2010.German.DL.1080...
The.Dead.2.India.2013.German...

Filme
Modern.Family.S09.GERMAN.DUB...
Modern.Family.S09.GERMAN.DUB...
MADIBA.S01D01-2.MULTi.COMPLE...
Suits.S07.COMPLETE.German.DL...
Summer.Shark.Attack.2016.Ger...
Fail.State.2017.1080p.WEB.H2...
Sugarhouse.2007.German.DL.10...
Suicide.Note.Falscher.Verdac...
Suicide.Squad.2016.German.TH...
Summer.of.Sam.1999.German.AC...
Summer.Scars.2007.German.DL....
Robin.Williams.Come.Inside.M...
Black.Book.2006.German.AC3D....
In.Sachen.Liebe.1997.German....
Sunset.Boulevard.1950.German...
Sunshine.Barry.und.die.Disco...
Super.Buddies.2013.German.AC...
Super.Cyclone.2012.German.DL...
Trumps.heisse.Grenze.GERMAN....
Supercollider.The.Black.Hole...
Superheroes.Voll.echte.Super...
Superstar.2012.German.1080p....
Supernatural.Activity.2012.G...
Supremacy.2014.German.DL.108...

 
 
Terminator.Salvation.Theatrical.Cut.Open.Matte.2009.German.AC3D.DL.1080p.WEB-DL.x265-FuN

Jahr: 2009
Genre: Action | Abenteuer | Sci-Fi
Sprache: Deutsch AC3 | Englisch AC3
Laufzeit: 1h 54mn
Bitrate: 3 673 Kbps
Format: MKV
Größe: 2.95 GiB
Release:

Beschreibung:

Im Jahr 2018 hat die Apokalypse längst ihren Lauf genommen und die Welt, wie wir sie kennen, existiert nicht mehr. Die Menschen werden von den Maschinen Skynets geknechtet und nur ein kleiner Teil unter der Führung von John Connor führt erbittert Widerstand gegen die Riege der Terminatoren. Unterstützung erhält die Gruppe um Connor von dem mysteriösen Fremden Marcus Wright.




File size                                : 2.95 GiB
Duration                                 : 1h 54mn
Overall bit rate                         : 3 673 Kbps
Movie name                               : Terminator Salvation 2009 Theatrical Cut Open Matte DL 1080p WEB x264 Massa Lu
Encoded date                             : UTC 2018-11-26 20:26:52
Writing application                      : HandBrake 20181104205902-46598fd-master 2018110501
Writing library                          : Lavf58.12.100

Video
ID                                       : 1
Format                                   : HEVC
Format/Info                              : High Efficiency Video Coding
Format profile                           : Main@L4.0
Codec ID                                 : V_MPEGH/ISO/HEVC
Duration                                 : 1h 54mn
Bit rate                                 : 2 832 Kbps
Width                                    : 1 920 pixels
Height                                   : 1 080 pixels
Display aspect ratio                     : 16:9
Frame rate mode                          : Constant
Frame rate                               : 23.976 fps
Color space                              : YUV
Chroma subsampling                       : 4:2:0
Bit depth                                : 8 bits
Bits/(Pixel*Frame)                       : 0.057
Stream size                              : 2.27 GiB (77%)
Writing library                          : x265 2.8:[Windows][GCC 7.1.0][64 bit] 8bit+10bit+12bit
Encoding settings                        : cpuid=1111039 / frame-threads=4 / numa-pools=8,8 / wpp / no-pmode / no-pme / no-psnr / no-ssim / log-level=2 / input-csp=1 / input-res=1920x1080 / interlace=0 / total-frames=0 / level-idc=0 / high-tier=1 / uhd-bd=0 / ref=3 / no-allow-non-conformance / no-repeat-headers / annexb / no-aud / no-hrd / info / hash=0 / no-temporal-layers / open-gop / min-keyint=24 / keyint=240 / gop-lookahead=0 / bframes=4 / b-adapt=2 / b-pyramid / bframe-bias=0 / rc-lookahead=20 / lookahead-slices=6 / scenecut=40 / radl=0 / no-intra-refresh / ctu=64 / min-cu-size=8 / no-rect / no-amp / max-tu-size=32 / tu-inter-depth=1 / tu-intra-depth=1 / limit-tu=0 / rdoq-level=0 / dynamic-rd=0.00 / no-ssim-rd / signhide / no-tskip / nr-intra=0 / nr-inter=0 / no-constrained-intra / no-strong-intra-smoothing / max-merge=2 / limit-refs=3 / no-limit-modes / me=1 / subme=2 / merange=57 / temporal-mvp / weightp / no-weightb / no-analyze-src-pics / deblock=0:0 / no-sao / no-sao-non-deblock / rd=3 / no-early-skip / rskip / no-fast-intra / no-tskip-fast / no-cu-lossless / no-b-intra / no-splitrd-skip / rdpenalty=0 / psy-rd=2.00 / psy-rdoq=0.00 / no-rd-refine / no-lossless / cbqpoffs=0 / crqpoffs=0 / rc=crf / crf=23.0 / qcomp=0.60 / qpstep=4 / stats-write=0 / stats-read=0 / ipratio=1.40 / pbratio=1.30 / aq-mode=1 / aq-strength=1.00 / cutree / zone-count=0 / no-strict-cbr / qg-size=32 / no-rc-grain / qpmax=69 / qpmin=0 / no-const-vbv / sar=1 / overscan=0 / videoformat=5 / range=0 / colorprim=1 / transfer=1 / colormatrix=1 / chromaloc=0 / display-window=0 / max-cll=0,0 / min-luma=0 / max-luma=255 / log2-max-poc-lsb=8 / vui-timing-info / vui-hrd-info / slices=1 / no-opt-qp-pps / no-opt-ref-list-length-pps / no-multi-pass-opt-rps / scenecut-bias=0.05 / no-opt-cu-delta-qp / no-aq-motion / no-hdr / no-hdr-opt / no-dhdr10-opt / no-idr-recovery-sei / analysis-reuse-level=5 / scale-factor=0 / refine-intra=0 / refine-inter=0 / refine-mv=0 / no-limit-sao / ctu-info=0 / no-lowpass-dct / refine-mv-type=0 / copy-pic=1 / max-ausize-factor=1.0 / no-dynamic-refine / no-single-sei
Default                                  : Yes
Forced                                   : No
DURATION                                 : 01:54:45.426000000

Audio #1
ID                                       : 2
Format                                   : AC-3
Format/Info                              : Audio Coding 3
Mode extension                           : CM (complete main)
Format settings, Endianness              : Big
Codec ID                                 : A_AC3
Duration                                 : 1h 54mn
Bit rate mode                            : Constant
Bit rate                                 : 384 Kbps
Channel(s)                               : 6 channels
Channel positions                        : Front: L C R, Side: L R, LFE
Sampling rate                            : 48.0 KHz
Bit depth                                : 16 bits
Compression mode                         : Lossy
Delay relative to video                  : 1s 768ms
Stream size                              : 315 MiB (10%)
Title                                    : Surround
Language                                 : German
Default                                  : Yes
Forced                                   : No
DURATION                                 : 01:54:48.461000000

Audio #2
ID                                       : 3
Format                                   : AC-3
Format/Info                              : Audio Coding 3
Mode extension                           : CM (complete main)
Format settings, Endianness              : Big
Codec ID                                 : A_AC3
Duration                                 : 1h 54mn
Bit rate mode                            : Constant
Bit rate                                 : 384 Kbps
Channel(s)                               : 6 channels
Channel positions                        : Front: L C R, Side: L R, LFE
Sampling rate                            : 48.0 KHz
Bit depth                                : 16 bits
Compression mode                         : Lossy
Delay relative to video                  : -5ms
Stream size                              : 315 MiB (10%)
Title                                    : Surround
Language                                 : English
Default                                  : No
Forced                                   : No
DURATION                                 : 01:54:45.376000000



Download:
Share Online Share OnlineShare OnlineShare Online
 

Kommentare