HD-AREA wünscht Euch eine besinnliche Weihnachtszeit ;)

DNS SERVER AENDERNum der staatlichen Zensur zu umgehen. Sollten wir von eurem Provider geseprrt werden, nutzt den TOR BROWSER oder ändert euren DNS SERVER.

Filmwünsche können bei uns im Forum abgegeben werden

Wir Speichern Nicht




 
 
 
Top Releases
Von.Loewen.und.Laemmern.2007...
The.Hateful.8.2015.German.AC...
Der.Unsichtbare.Gast.2016.Ge...
BlacKkKlansman.2018.German.A...
Von.Loewen.und.Laemmern.2007...
Von.Loewen.und.Laemmern.2007...
Von.Loewen.und.Laemmern.2007...
Braven.2018.German.AC3.DL.10...
The.Last.Movie.Star.2017.DUA...
The.Infiltrator.2016.German....

Cinedubs
Johnny.English.Man.lebt.nur....
Johnny.English.Man.lebt.nur....
Johnny.English.Man.lebt.nur....
Phantastische.Tierwesen.Grin...
Phantastische.Tierwesen.Grin...
The.Guilty.2018.German.AC3D....
The.Guilty.2018.German.AC3D....
Aufbruch.zum.Mond.German.DL....
Aufbruch.zum.Mond.German.DL....
Night.School.2018.GERMAN.DL....

Neuerscheinungen 2017-18
Slender.Man.2018.MULTi.COMPL...
Der.Teufelsschrei.Evilspeak....
Ultimate.Justice.Toeten.oder...
Ben.Abenteuer.auf.der.Maeuse...
Ben.Abenteuer.auf.der.Maeuse...
Ben.Abenteuer.auf.der.Maeuse...
Ultimate.Justice.Toeten.oder...
Ultimate.Justice.Toeten.oder...
Pitchfork.2016.UNCUT.German....
Robin.Hood.Der.Rebell.2018.G...

XXX
FatManFuck.18.06.17.Lexus.Jo...
FatManFuck.18.05.20.Charlie....
FuckinVan.18.12.11.Estrella....
EuroTeenErotica.18.12.10.Kri...
GapeLand.18.12.12.Victoria.P...
GirlsOutWest.18.12.10.Rubi.V...
FatManFuck.18.05.27.Cherry.X...
GirlsWay.18.12.10.Penny.Pax....
FatManFuck.18.05.05.Lola.Rae...
FTVMilfs.18.12.11.Elle.Mcrae...
FakeTaxi.18.12.12.Kylie.Nymp...
GirlsOutWest.18.12.12.Montan...
GroupSexGames.18.12.09.Jasmi...
GirlsGoneWild.18.12.11.Honey...
FakeDrivingSchool.18.12.10.G...
Ferocious.Feet.5.XXX.1080p.W...
GrandpasFuckTeens.18.12.11.S...
DorcelClub.18.12.10.Mariska....
EroticaX.18.12.12.Valentina....
EvilAngel.Noir.XXX.1080p.MP4...

3D
Meg.3D.2018.MULTi.COMPLETE.B...
Meg.3D.2018.German.DL.1080p....
Gans.im.Glueck.3D.2018.MULTi...
The.Art.of.Flight.3D.2011.Ge...
The.End.Of.The.World.3D.2010...
The.First.Avenger.Civil.War....
Die.Unglaublichen.2.2018.3D....
Skyscraper.3D.2018.MULTi.COM...
Ant-Man.And.The.Wasp.3D.2018...
Ant.Man.and.the.Wasp.3D.2018...
Die.Unglaublichen.2.3D.2018....
Die.Unglaublichen.2.2018.3D....
Die.Unglaublichen.2.2018.3D....
Sharknado.6.The.Last.One.3D....
Deep.Kleine.Helden.der.Tiefs...

Old_Stuff
Akte.X.S05.German.DTS.DL.108...
Akte.X.S04.German.DTS.DL.108...
Akte.X.S03.German.DTS.DL.108...
Dunkirk.1958.COMPLETE.BLURAY...
Das.Wunder.von.Manhattan.199...
The.Amazing.Spiderman.2.Rise...
Rise.of.the.Predator.2014.Ge...
Detective.Dee.und.das.Geheim...
Detective.Dee.Und.Der.Fluch....
Ghost.Rider.Spirit.of.Vengea...
Species.IV.Das.Erwachen.2007...
Species.IV.Das.Erwachen.2007...
Hotel.Transsilvanien.2012.Ge...
The.Dead.2010.German.DL.1080...
The.Dead.2.India.2013.German...

Filme
Modern.Family.S09.GERMAN.DUB...
Modern.Family.S09.GERMAN.DUB...
MADIBA.S01D01-2.MULTi.COMPLE...
Suits.S07.COMPLETE.German.DL...
Summer.Shark.Attack.2016.Ger...
Fail.State.2017.1080p.WEB.H2...
Sugarhouse.2007.German.DL.10...
Suicide.Note.Falscher.Verdac...
Suicide.Squad.2016.German.TH...
Summer.of.Sam.1999.German.AC...
Summer.Scars.2007.German.DL....
Robin.Williams.Come.Inside.M...
Black.Book.2006.German.AC3D....
In.Sachen.Liebe.1997.German....
Sunset.Boulevard.1950.German...
Sunshine.Barry.und.die.Disco...
Super.Buddies.2013.German.AC...
Super.Cyclone.2012.German.DL...
Trumps.heisse.Grenze.GERMAN....
Supercollider.The.Black.Hole...
Superheroes.Voll.echte.Super...
Superstar.2012.German.1080p....
Supernatural.Activity.2012.G...
Supremacy.2014.German.DL.108...

 
 
Arrow.S06.German.DL.1080p.BluRay.x264-EXCiTED

Jahr: 2017
Genre: Action | Abenteuer | Krimi
Sprache: Deutsch AC3 | Englisch DTS
Laufzeit: 42min je Folge
Bitrate: 10 Mbps
Format: MKV
Größe: 3,7 GB je Folge
Release:

Beschreibung:

Als einziger Überlebender eines Schiffbruchs führt der Playboy und Milliardärssohn Oliver Queen fünf Jahre lang ein Robinson-Crusoe-Leben auf einer einsamen Insel. Er wird zum meisterhaften Bogenschützen. Nach seiner Rettung kehrt Queen charakterlich geläutert in seine Heimatstadt Starling City zurück. Er beschließt, der steigenden Kriminalitätsrate ein Ende zu setzen. Während er tagsüber in der Öffentlichkeit seine frühere Rolle als verwöhnter Snob spielt, bekämpft er nachts mit Pfeil und Bogen in geheimer Identität Verbrechen und Korruption. Zugleich versucht er, wieder bei Ex-Freundin Laurel zu landen. Deren Vater, ein Detective, betrachtet die Ankunft eines neuen Superhelden in Starling City aber mit Skepsis.

 

Notes:

Folge 1 und 18-23 sind enthalten. Der Rest folgt wenn released!



General
Complete name                            : Arrow.S06E01.German.DL.1080p.BluRay.x264-EXCiTED\arrow.s06e01.german.dl.1080p.bluray.x264-excited.mkv
Format                                   : Matroska
Format version                           : Version 2
File size                                : 3.71 GiB
Duration                                 : 42mn 22s
Overall bit rate                         : 12.5 Mbps
Writing application                      : mkvmerge v4.1.1 ('Bouncin' Back') built on Jul  3 2010 22:54:08
Writing library                          : libebml v1.0.0 + libmatroska v1.0

Video
ID                                       : 1
Format                                   : AVC
Format/Info                              : Advanced Video Codec
Format profile                           : High@L4.1
Format settings, CABAC                   : Yes
Format settings, ReFrames                : 4 frames
Codec ID                                 : V_MPEG4/ISO/AVC
Duration                                 : 42mn 22s
Bit rate                                 : 10.1 Mbps
Width                                    : 1 920 pixels
Height                                   : 1 080 pixels
Display aspect ratio                     : 16:9
Frame rate mode                          : Constant
Frame rate                               : 23.976 fps
Color space                              : YUV
Chroma subsampling                       : 4:2:0
Bit depth                                : 8 bits
Scan type                                : Progressive
Bits/(Pixel*Frame)                       : 0.204
Stream size                              : 3.00 GiB (81%)
Writing library                          : x264 core 157 r2935 545de2f
Encoding settings                        : cabac=1 / ref=4 / deblock=1:-3:-3 / analyse=0x3:0x113 / me=umh / subme=8 / psy=1 / psy_rd=1.00:0.15 / mixed_ref=1 / me_range=16 / chroma_me=1 / trellis=2 / 8x8dct=1 / cqm=0 / deadzone=21,11 / fast_pskip=0 / chroma_qp_offset=-3 / threads=24 / lookahead_threads=4 / sliced_threads=0 / nr=0 / decimate=1 / interlaced=0 / bluray_compat=0 / constrained_intra=0 / bframes=3 / b_pyramid=2 / b_adapt=2 / b_bias=0 / direct=3 / weightb=1 / open_gop=0 / weightp=2 / keyint=240 / keyint_min=23 / scenecut=40 / intra_refresh=0 / rc_lookahead=50 / rc=crf / mbtree=1 / crf=19.0 / qcomp=0.60 / qpmin=10 / qpmax=69 / qpstep=4 / ip_ratio=1.40 / aq=1:1.00
Language                                 : English
Default                                  : Yes
Forced                                   : No

Audio #1
ID                                       : 2
Format                                   : AC-3
Format/Info                              : Audio Coding 3
Mode extension                           : CM (complete main)
Format settings, Endianness              : Big
Codec ID                                 : A_AC3
Duration                                 : 42mn 22s
Bit rate mode                            : Constant
Bit rate                                 : 640 Kbps
Channel(s)                               : 6 channels
Channel positions                        : Front: L C R, Side: L R, LFE
Sampling rate                            : 48.0 KHz
Bit depth                                : 16 bits
Compression mode                         : Lossy
Stream size                              : 194 MiB (5%)
Language                                 : German
Default                                  : Yes
Forced                                   : No

Audio #2
ID                                       : 3
Format                                   : DTS
Format/Info                              : Digital Theater Systems
Mode                                     : 16
Format settings, Endianness              : Big
Codec ID                                 : A_DTS
Duration                                 : 42mn 22s
Bit rate mode                            : Constant
Bit rate                                 : 1 509 Kbps
Channel(s)                               : 6 channels
Channel positions                        : Front: L C R, Side: L R, LFE
Sampling rate                            : 48.0 KHz
Bit depth                                : 16 bits
Compression mode                         : Lossy
Stream size                              : 457 MiB (12%)
Language                                 : English
Default                                  : No
Forced                                   : No

Text
ID                                       : 4
Format                                   : UTF-8
Codec ID                                 : S_TEXT/UTF8
Codec ID/Info                            : UTF-8 Plain Text
Language                                 : German
Default                                  : Yes
Forced                                   : Yes

Menu
00:00:00.000                             : en:00:00:00.000
00:01:04.731                             : en:00:01:04.731
00:02:37.657                             : en:00:02:37.657
00:07:29.991                             : en:00:07:29.991
00:15:16.290                             : en:00:15:16.290
00:21:42.092                             : en:00:21:42.092
00:29:00.447                             : en:00:29:00.447
00:34:10.715                             : en:00:34:10.715
00:41:24.773                             : en:00:41:24.773



Download:
Share-Online.biz Share-Online.bizShare-Online.bizShare-Online.biz | Rapidgator.net Rapidgator.netRapidgator.netRapidgator.net
 

Kommentare