HD-AREA wünscht Euch eine besinnliche Weihnachtszeit ;)

DNS SERVER AENDERNum der staatlichen Zensur zu umgehen. Sollten wir von eurem Provider geseprrt werden, nutzt den TOR BROWSER oder ändert euren DNS SERVER.

Filmwünsche können bei uns im Forum abgegeben werden

Wir Speichern Nicht




 
 
 
Top Releases
Von.Loewen.und.Laemmern.2007...
The.Hateful.8.2015.German.AC...
Der.Unsichtbare.Gast.2016.Ge...
BlacKkKlansman.2018.German.A...
Von.Loewen.und.Laemmern.2007...
Von.Loewen.und.Laemmern.2007...
Von.Loewen.und.Laemmern.2007...
Braven.2018.German.AC3.DL.10...
The.Last.Movie.Star.2017.DUA...
The.Infiltrator.2016.German....

Cinedubs
Johnny.English.Man.lebt.nur....
Johnny.English.Man.lebt.nur....
Johnny.English.Man.lebt.nur....
Phantastische.Tierwesen.Grin...
Phantastische.Tierwesen.Grin...
The.Guilty.2018.German.AC3D....
The.Guilty.2018.German.AC3D....
Aufbruch.zum.Mond.German.DL....
Aufbruch.zum.Mond.German.DL....
Night.School.2018.GERMAN.DL....

Neuerscheinungen 2017-18
Slender.Man.2018.MULTi.COMPL...
Der.Teufelsschrei.Evilspeak....
Ultimate.Justice.Toeten.oder...
Ben.Abenteuer.auf.der.Maeuse...
Ben.Abenteuer.auf.der.Maeuse...
Ben.Abenteuer.auf.der.Maeuse...
Ultimate.Justice.Toeten.oder...
Ultimate.Justice.Toeten.oder...
Pitchfork.2016.UNCUT.German....
Robin.Hood.Der.Rebell.2018.G...

XXX
FatManFuck.18.06.17.Lexus.Jo...
FatManFuck.18.05.20.Charlie....
FuckinVan.18.12.11.Estrella....
EuroTeenErotica.18.12.10.Kri...
GapeLand.18.12.12.Victoria.P...
GirlsOutWest.18.12.10.Rubi.V...
FatManFuck.18.05.27.Cherry.X...
GirlsWay.18.12.10.Penny.Pax....
FatManFuck.18.05.05.Lola.Rae...
FTVMilfs.18.12.11.Elle.Mcrae...
FakeTaxi.18.12.12.Kylie.Nymp...
GirlsOutWest.18.12.12.Montan...
GroupSexGames.18.12.09.Jasmi...
GirlsGoneWild.18.12.11.Honey...
FakeDrivingSchool.18.12.10.G...
Ferocious.Feet.5.XXX.1080p.W...
GrandpasFuckTeens.18.12.11.S...
DorcelClub.18.12.10.Mariska....
EroticaX.18.12.12.Valentina....
EvilAngel.Noir.XXX.1080p.MP4...

3D
Meg.3D.2018.MULTi.COMPLETE.B...
Meg.3D.2018.German.DL.1080p....
Gans.im.Glueck.3D.2018.MULTi...
The.Art.of.Flight.3D.2011.Ge...
The.End.Of.The.World.3D.2010...
The.First.Avenger.Civil.War....
Die.Unglaublichen.2.2018.3D....
Skyscraper.3D.2018.MULTi.COM...
Ant-Man.And.The.Wasp.3D.2018...
Ant.Man.and.the.Wasp.3D.2018...
Die.Unglaublichen.2.3D.2018....
Die.Unglaublichen.2.2018.3D....
Die.Unglaublichen.2.2018.3D....
Sharknado.6.The.Last.One.3D....
Deep.Kleine.Helden.der.Tiefs...

Old_Stuff
Akte.X.S05.German.DTS.DL.108...
Akte.X.S04.German.DTS.DL.108...
Akte.X.S03.German.DTS.DL.108...
Dunkirk.1958.COMPLETE.BLURAY...
Das.Wunder.von.Manhattan.199...
The.Amazing.Spiderman.2.Rise...
Rise.of.the.Predator.2014.Ge...
Detective.Dee.und.das.Geheim...
Detective.Dee.Und.Der.Fluch....
Ghost.Rider.Spirit.of.Vengea...
Species.IV.Das.Erwachen.2007...
Species.IV.Das.Erwachen.2007...
Hotel.Transsilvanien.2012.Ge...
The.Dead.2010.German.DL.1080...
The.Dead.2.India.2013.German...

Filme
Modern.Family.S09.GERMAN.DUB...
Modern.Family.S09.GERMAN.DUB...
MADIBA.S01D01-2.MULTi.COMPLE...
Suits.S07.COMPLETE.German.DL...
Summer.Shark.Attack.2016.Ger...
Fail.State.2017.1080p.WEB.H2...
Sugarhouse.2007.German.DL.10...
Suicide.Note.Falscher.Verdac...
Suicide.Squad.2016.German.TH...
Summer.of.Sam.1999.German.AC...
Summer.Scars.2007.German.DL....
Robin.Williams.Come.Inside.M...
Black.Book.2006.German.AC3D....
In.Sachen.Liebe.1997.German....
Sunset.Boulevard.1950.German...
Sunshine.Barry.und.die.Disco...
Super.Buddies.2013.German.AC...
Super.Cyclone.2012.German.DL...
Trumps.heisse.Grenze.GERMAN....
Supercollider.The.Black.Hole...
Superheroes.Voll.echte.Super...
Superstar.2012.German.1080p....
Supernatural.Activity.2012.G...
Supremacy.2014.German.DL.108...

 
 
Cam.2018.German.DL.720p.WEB.x264-BiGiNT

Jahr: 2018
Genre: Thriller
Sprache: Deutsch AC3 | Englisch AC3
Laufzeit: 1h 34mn
Bitrate: 2 895 Kbps
Format: MKV
Größe: 1.92 GiB
Release:

Beschreibung:

Eine Doppelgängerin stiehlt im Internet die Identität eines aufstrebenden Camgirls. Im Kampf um ihre eigene Identität muss die Geschädigte die Schuldige ausfindig machen.



Complete name                            : cam.2018.german.dl.720p.web.x264-bigint.mkv
Format                                   : Matroska
Format version                           : Version 4 / Version 2
File size                                : 1.92 GiB
Duration                                 : 1h 34mn
Overall bit rate mode                    : Variable
Overall bit rate                         : 2 895 Kbps
Encoded date                             : UTC 2018-11-16 18:53:35
Writing application                      : mkvmerge v22.0.0 ('At The End Of The World') 64-bit
Writing library                          : libebml v1.3.5 + libmatroska v1.4.8
DURATION                                 : 01:31:14.802000000
NUMBER_OF_FRAMES                         : 1434
NUMBER_OF_BYTES                          : 42746
_STATISTICS_WRITING_APP                  : mkvmerge v22.0.0 ('At The End Of The World') 64-bit
_STATISTICS_WRITING_DATE_UTC             : 2018-11-16 18:53:35
_STATISTICS_TAGS                         : BPS DURATION NUMBER_OF_FRAMES NUMBER_OF_BYTES

Video
ID                                       : 1
Format                                   : AVC
Format/Info                              : Advanced Video Codec
Format profile                           : Main@L3.1
Format settings, CABAC                   : Yes
Format settings, ReFrames                : 3 frames
Codec ID                                 : V_MPEG4/ISO/AVC
Duration                                 : 1h 34mn
Bit rate mode                            : Variable
Bit rate                                 : 2 150 Kbps
Maximum bit rate                         : 3 225 Kbps
Width                                    : 1 280 pixels
Height                                   : 720 pixels
Display aspect ratio                     : 16:9
Frame rate mode                          : Constant
Frame rate                               : 23.976 fps
Color space                              : YUV
Chroma subsampling                       : 4:2:0
Bit depth                                : 8 bits
Scan type                                : Progressive
Bits/(Pixel*Frame)                       : 0.097
Stream size                              : 1.37 GiB (71%)
Writing library                          : x264 core 148 r2715 7e75228
Encoding settings                        : cabac=1 / ref=3 / deblock=1:0:0 / analyse=0x1:0x111 / me=umh / subme=10 / psy=1 / psy_rd=1.00:0.00 / mixed_ref=1 / me_range=24 / chroma_me=1 / trellis=2 / 8x8dct=0 / cqm=0 / deadzone=21,11 / fast_pskip=1 / chroma_qp_offset=-2 / threads=8 / lookahead_threads=1 / sliced_threads=0 / nr=0 / decimate=1 / interlaced=0 / bluray_compat=0 / stitchable=1 / constrained_intra=0 / bframes=2 / b_pyramid=0 / b_adapt=2 / b_bias=0 / direct=3 / weightb=1 / open_gop=0 / weightp=2 / keyint=48 / keyint_min=25 / scenecut=0 / intra_refresh=0 / rc_lookahead=48 / rc=2pass / mbtree=1 / bitrate=2150 / ratetol=1.0 / qcomp=0.50 / qpmin=6 / qpmax=51 / qpstep=4 / cplxblur=20.0 / qblur=0.5 / vbv_maxrate=3225 / vbv_bufsize=4300 / nal_hrd=vbr / filler=0 / ip_ratio=1.40 / aq=1:1.00
Default                                  : Yes
Forced                                   : No

Audio #1
ID                                       : 2
Format                                   : AC-3
Format/Info                              : Audio Coding 3
Mode extension                           : CM (complete main)
Format settings, Endianness              : Big
Codec ID                                 : A_AC3
Duration                                 : 1h 34mn
Bit rate mode                            : Constant
Bit rate                                 : 384 Kbps
Channel(s)                               : 6 channels
Channel positions                        : Front: L C R, Side: L R, LFE
Sampling rate                            : 48.0 KHz
Bit depth                                : 16 bits
Compression mode                         : Lossy
Stream size                              : 261 MiB (13%)
Language                                 : German
Default                                  : Yes
Forced                                   : No

Audio #2
ID                                       : 3
Format                                   : AC-3
Format/Info                              : Audio Coding 3
Mode extension                           : CM (complete main)
Format settings, Endianness              : Big
Codec ID                                 : A_AC3
Duration                                 : 1h 34mn
Bit rate mode                            : Constant
Bit rate                                 : 384 Kbps
Channel(s)                               : 6 channels
Channel positions                        : Front: L C R, Side: L R, LFE
Sampling rate                            : 48.0 KHz
Bit depth                                : 16 bits
Compression mode                         : Lossy
Stream size                              : 261 MiB (13%)
Language                                 : English
Default                                  : No
Forced                                   : No

Text #1
ID                                       : 4
Format                                   : UTF-8
Codec ID                                 : S_TEXT/UTF8
Codec ID/Info                            : UTF-8 Plain Text
Title                                    : Forced
Language                                 : German
Default                                  : Yes
Forced                                   : Yes

Text #2
ID                                       : 5
Format                                   : UTF-8
Codec ID                                 : S_TEXT/UTF8
Codec ID/Info                            : UTF-8 Plain Text
Title                                    : Deutsch
Language                                 : German
Default                                  : No
Forced                                   : No

Text #3
ID                                       : 6
Format                                   : UTF-8
Codec ID                                 : S_TEXT/UTF8
Codec ID/Info                            : UTF-8 Plain Text
Title                                    : Englisch (CC)
Language                                 : English
Default                                  : No
Forced                                   : No


Download:
Share Online Share OnlineShare OnlineShare Online
 

Kommentare