Filecrypt zeigt vereinzelt Files als "n/a". Die Downloads sind trotzdem komplett.

DNS SERVER AENDERNum der staatlichen Zensur zu umgehen. Sollten wir von eurem Provider geseprrt werden, nutzt den TOR BROWSER oder ändert euren DNS SERVER.

Filmwünsche können bei uns im Forum abgegeben werden

Wir Speichern Nicht




 
 
 
Top Releases
Le.Jeu.Nichts.zu.verbergen.2...
Le.Jeu.Nichts.zu.verbergen.2...
Cam.2018.German.DL.1080p.WEB...
Cam.2018.German.DL.720p.WEB....
Teen.Titans.Go.To.the.Movies...
The.Ballad.of.Buster.Scruggs...
Teen.Titans.Go.To.the.Movies...
The.Ballad.of.Buster.Scruggs...
Logan.The.Wolverine.2017.NOI...
Mandy.2018.German.DL.1080p.B...

Cinedubs
Christopher.Robin.German.DL....
Christopher.Robin.German.DL....
A.Star.Is.Born.German.DL.AC3...
A.Star.Is.Born.German.DL.AC3...
Mission.Impossible.Fallout.G...
Mission.Impossible.Fallout.G...
Sicario.2.2018.German.DL.AC3...
Juliet.Naked.2018.GERMAN.DL....
Juliet.Naked.2018.GERMAN.DL....
10x10.2018.German.AC3D.DL.10...

Neuerscheinungen 2017-18
Night.Of.The.Demons.1988.DUA...
Africa.Addio.1966.DUAL.COMPL...
In.Darkness.2018.MULTI.COMPL...
Boarding.School.2018.COMPLET...
Immortal.Wars.Nur.der.Staerk...
Beautiful.People.2014.German...
Mission.Yeti.2017.German.DL....
Mission.Yeti.2017.German.720...
Boarding.School.2018.German....
Boarding.School.2018.German....

XXX
NetVideoGirls.18.10.23.Janey...
NHLPCentral.18.06.21.Brook.L...
LustyGrandmas.18.03.22.Marsh...
POVPornstars.18.10.30.Lila.M...
POVLife.18.10.29.Skylar.Vale...
NetGirl.18.10.17.Gemma.And.A...
NewSensations.18.10.29.Angel...
Nubiles.18.10.29.Cleo.Mijare...
OldYoungLesbianLove.18.10.29...
NHLPCentral.18.06.14.Honour....
NubileFilms.18.10.29.Riley.S...
LustyGrandmas.18.04.02.Sila....
PlayboyPlus.18.10.29.Jenessa...
Old-n-Young.18.10.27.Blue.Sk...
NewSensations.18.10.31.Emily...
OnlyBlowJob.18.10.04.Rose.XX...
PlayboyPlus.18.10.28.Playmat...
LustyGrandmas.18.04.08.Viol....
PixAndVideo.18.10.29.Marica....
Passion-HD.18.10.31.Megan.Wi...

3D
Die.Unglaublichen.2.2018.3D....
Skyscraper.3D.2018.MULTi.COM...
Ant-Man.And.The.Wasp.3D.2018...
Ant.Man.and.the.Wasp.3D.2018...
Die.Unglaublichen.2.3D.2018....
Die.Unglaublichen.2.2018.3D....
Die.Unglaublichen.2.2018.3D....
Sharknado.6.The.Last.One.3D....
Deep.Kleine.Helden.der.Tiefs...
Deep.3D.2017.MULTI.COMPLETE....
Detective.Dee.und.die.Legend...
Detective.Dee.und.die.Legend...
Skyscraper.3D.German.DL.AC3....
Ant-Man.and.the.Wasp.2018.3D...
Jurassic.World.Das.gefallene...

Old_Stuff
Detective.Dee.und.das.Geheim...
Detective.Dee.Und.Der.Fluch....
Ghost.Rider.Spirit.of.Vengea...
Species.IV.Das.Erwachen.2007...
Species.IV.Das.Erwachen.2007...
Hotel.Transsilvanien.2012.Ge...
The.Dead.2010.German.DL.1080...
The.Dead.2.India.2013.German...
Britney.Spears.Live.The.Femm...
Buffy.The.Vampire.Slayer.199...
IMAX.Ride.Around.The.World.2...
Schimanski.-.Duisburg.Ruhror...
Akte.X.S02.German.DTS.DL.108...
How.I.Met.Your.Mother.S02.Ge...
Akte.X.S01.German.DTS.DL.108...

Filme
Meine.Zeit.mit.Cezanne.2016....
Spider-Man.2.2004.UHD2BD.7.1...
Wara.No.Tate.Die.Gejagten.20...
Winged.Creatures.2008.German...
House.of.Good.and.Evil.2013....
Arctic.Blast.-.Wenn.Die.Welt...
Die.Pest.S01.D01-2.MULTi.COM...
Familiensache.1998.German.AC...
Joshua.Der.Erstgeborene.2007...
Die.eiserne.Maske.1962.UNCUT...
MotoGP.Moto2.Moto3.Saison.20...
Das.Boot.1981.GERMAN.DC.1080...
42.Die.wahre.Geschichte.eine...
Graceland.2012.German.1080p....
Horsehead.2014.German.DL.108...
Oliver.Twist.1948.German.AC3...
Gold.Diggers.-.Das.Geheimnis...
Der.Salamander.1981.German.A...
Revenge.2017.German.1080p.DT...
Der.Marsianer.Rettet.Mark.Wa...
Hereditary.Das.Vermaechtnis....
Rocky.1976.German.DL.DTS.Dub...
Scorpion.King.Das.Buch.der.S...
Das.Geheimniss.von.Marrowbon...

 
 
The.Gifted.S02.GERMAN.DL.720p.HDTV.x264-TMSF

Jahr: 2018
Genre: Action | Drama | Fantasy
Sprache: Deutsch AC3 | Englisch AC3
Laufzeit: 41min je Folge
Bitrate: 1800 Kbps
Format: MKV
Größe: 800 MB je Folge
Release:

Beschreibung:

Die Marvel-Serie „The Gifted“ dreht sich um ein normales Elternpaar mit außergewöhnlichen Kindern. Außergewöhnlich, da sie Mutanten sind. Als solche geraten sie ins Visier der Regierung, sodass die gesamte Familie flüchten muss und sich einer Untergrundorganisation von anderen verfolgten Mutanten anschließt.

Die Eltern, Kate und Reed Strucker, werden von Amy Acker und Stephen Moyer gespielt. Reed ist ein ambitionierter Staatsanwalt, der versucht seinen Job und seine Familie unter einen Hut zu bekommen. Doch eigentlich befinden sich die beiden im Scheidungsprozess, doch dann verändert sich für die Familie auf tragische Weise alles.

Natalie Alyn Lind spielt Lauren, eines der Kinder mit Mutantenkräften. Sie wird als das perfekte Kind beschrieben: schlau, hübsch, beliebt und organisiert. Sohn Andy, eher ein Einzelgänger, wird von Percy Hynes-White gespielt.​

 

enthaltene Folgen:

The.Gifted.S02E01.GERMAN.DL.720p.HDTV.x264-TMSF NEU



General
Complete name                            : The.Gifted.S02E01.GERMAN.DL.720p.HDTV.x264-TMSF\tmsf-thegifted-s02e01-720p.mkv
Format                                   : Matroska
Format version                           : Version 4 / Version 2
File size                                : 770 MiB
Duration                                 : 41mn 8s
Overall bit rate                         : 2 617 Kbps
Encoded date                             : UTC 2018-11-08T00:36:42Z
Writing application                      : HandBrake 1.1.2 2018090500
Writing library                          : Lavf57.7.2

Video
ID                                       : 1
Format                                   : AVC
Format/Info                              : Advanced Video Codec
Format profile                           : High@L4.1
Format settings, CABAC                   : Yes
Format settings, ReFrames                : 5 frames
Codec ID                                 : V_MPEG4/ISO/AVC
Duration                                 : 41mn 8s
Bit rate                                 : 1 797 Kbps
Width                                    : 1 280 pixels
Height                                   : 720 pixels
Display aspect ratio                     : 16:9
Frame rate mode                          : Constant
Frame rate                               : 25.000 fps
Color space                              : YUV
Chroma subsampling                       : 4:2:0
Bit depth                                : 8 bits
Scan type                                : Progressive
Bits/(Pixel*Frame)                       : 0.078
Stream size                              : 529 MiB (69%)
Writing library                          : x264 core 155 r2901 7d0ff22
Encoding settings                        : cabac=1 / ref=5 / deblock=1:-3:-3 / analyse=0x3:0x113 / me=hex / subme=9 / psy=1 / psy_rd=1.00:0.00 / mixed_ref=1 / me_range=16 / chroma_me=1 / trellis=2 / 8x8dct=1 / cqm=0 / deadzone=21,11 / fast_pskip=1 / chroma_qp_offset=-2 / threads=12 / lookahead_threads=1 / sliced_threads=0 / nr=0 / decimate=1 / interlaced=0 / bluray_compat=0 / constrained_intra=0 / bframes=3 / b_pyramid=2 / b_adapt=1 / b_bias=0 / direct=3 / weightb=1 / open_gop=0 / weightp=2 / keyint=250 / keyint_min=25 / scenecut=40 / intra_refresh=0 / rc_lookahead=50 / rc=crf / mbtree=1 / crf=19.0 / qcomp=0.60 / qpmin=0 / qpmax=69 / qpstep=4 / vbv_maxrate=62500 / vbv_bufsize=78125 / crf_max=0.0 / nal_hrd=none / filler=0 / ip_ratio=1.40 / aq=1:1.00
Default                                  : Yes
Forced                                   : No
Color primaries                          : BT.709
Transfer characteristics                 : BT.709
Matrix coefficients                      : BT.709

Audio #1
ID                                       : 2
Format                                   : AC-3
Format/Info                              : Audio Coding 3
Mode extension                           : CM (complete main)
Format settings, Endianness              : Big
Codec ID                                 : A_AC3
Duration                                 : 41mn 8s
Bit rate mode                            : Constant
Bit rate                                 : 384 Kbps
Channel(s)                               : 2 channels
Channel positions                        : Front: L R
Sampling rate                            : 48.0 KHz
Bit depth                                : 16 bits
Compression mode                         : Lossy
Delay relative to video                  : 136ms
Stream size                              : 113 MiB (15%)
Title                                    : Stereo
Language                                 : German
Default                                  : Yes
Forced                                   : No

Audio #2
ID                                       : 3
Format                                   : AC-3
Format/Info                              : Audio Coding 3
Mode extension                           : CM (complete main)
Format settings, Endianness              : Big
Codec ID                                 : A_AC3
Duration                                 : 41mn 8s
Bit rate mode                            : Constant
Bit rate                                 : 384 Kbps
Channel(s)                               : 2 channels
Channel positions                        : Front: L R
Sampling rate                            : 48.0 KHz
Bit depth                                : 16 bits
Compression mode                         : Lossy
Delay relative to video                  : 128ms
Stream size                              : 113 MiB (15%)
Title                                    : Stereo
Language                                 : English
Default                                  : No
Forced                                   : No



Download:
Share-Online.biz Share-Online.bizShare-Online.bizShare-Online.biz | Rapidgator.net Rapidgator.netRapidgator.netRapidgator.net
 

Kommentare